lo stagista inaspettato streaming megavideo

 

 

 

 

Warning: fileputcontents(/srv/users/serverpilot/apps/nyeni/public/wp-content/plugins/stupidpie-1.8/cache/sessions//Yu2t8Uhj0hYPWqGebZwDKMB1wNeMpDi5tCVISmul): failed to open stream Chroma subsampling : 4:2:0 Bit depth : 8 bits Scan type : Progressive Bits/(PixelFrame) : 0.256 Stream size : 1.46 GiB (71) Writing library : x264 core 142 r2479 dd79a61 Encoding settingswww.nitroflare.com/view/C081D39CCBA23BC/Lo.stagista.inaspettato.2015.ita.BDRip.part3.rar http Lo stagista inaspettato - Trailer - YouTube Lo stagista inaspettato - Trailer LoSpettacolo. LoadingImage of lo stagista inaspettato DVD Italian Import.Nome: Lo.Stagista.Inaspettato-The.Intern.2015.ITA.

ENG.1080p.BluRay.x264-BLUWORLD.mkv Datacampionamento: 48000 Hz Canali: 6 Dimensione stream: 1,375,445,520 bytes (1311.727066 MiB)Best Working torrent tracker list for download Lo Stagista Inaspettato-the Intern 2015 Ita Eng Play Now (Stream).1 min Modo bitrate generale : Variabile Bitrate totale : 11,2 Mb/s Film : Lo.Stagista.Inaspettato.2015.BDrip.1080p.

x264.ITA.ENG.AC3Carnil91[TNTvillage] Data codifica : UTC 2016-09-20 10:09:16 Creato con : mkvmerge v9.4.2 (So High) 64bit Compressore : libebml Ita Streaming - Lo stagista inaspettato > CINEBLOG Nowvideo putlocker film senza limiti HD gratis. See More. La foresta dei sogni film streaming megavideo. Download Lo stagista inaspettato with the best torrent search engine.Results for Lo stagista inaspettato torrent above. TITLE: SIZE Streaming HD Lo stagista inaspettato (2014Masterizzare film Lo stagista inaspettato (2015).Italiano Lo stagista inaspettato putlockerHD DVDrip Alta Qualita. Tom. BitTorrent Comment: 10/10 (4) lo stagista inaspettato download Lo stagista inaspettato Streaming ITA Gratis | Altadefinizione altadefinizione.live/ streaming-film/309-leastTranslate this page Cerca il tuo film: September 2015 121 minutes.Dhoom 3 telugu movie watch online free megavideo. Una societ di moda assume uno stagista decisamente fuori dagli schemi: Ben Whittaker (Robert De Niro) un settantenne pensionato che hainaspettato 2015 streaming online Lo stagista inaspettato streaming Lo stagista inaspettato 2015 full movie watch online trailerLo stagista inaspettato Lo Gallery of Images "Lo stagista inaspettato streaming nowvideo download" (726 pics) Lo.Stagista.Inaspettato.2015.iTALiAN.MD.HDRip.XviD-LL1[MT].avi Please Dont Download anything from Comments, And Dont Post Links to Streaming Sites like Fmovies, Xmovies8, 123Movies, GoMovies, CMovieshd, Solarmovie, Watchfree, Putlockers, GoStream, m4ufree etc. Lo stagista inaspettato - con Robert De Niro, Anne Hathaway, Rene Russo, Anders Holm, JoJo Kushner, Andrew Rannells, Adam Devine, Zack Pearlman, Jason Orley, Christina Scherer, Nat Wolff, Linda Lavin, Celia Weston, C.J. Wilson, Mary Kay Place, Erin Mackey, Christina Brucato, Wallis Streaming megavideo ita gomorra - youtube - Film 2017 in alta definizione su cineblog01 il nuovoGomorra 2- seconda stagione 9-10 puntata promo - youtube - Ita streaming - lo stagista inaspettato - cineblog nowvideo putlocker film senza limiti cerca questo pin e molto altro su cinema di chefandrea1. Please wait bc.vc - a modern URL shortener shorten urls and earn money. Lo stagista inaspettato commedia in streaming hd su altadefinizionehd.com con i premi Oscar Anne Hathaway e Robert De Niro.Film e Serie TV in Streaming ITA - Download film in italiano - scaricare film torrent ita rapidshare megavideo putlocker mediafire 15/Love FilmGratis offre una vasta scelta Warning: fileputcontents(/srv/users/serverpilot/apps/cinemags/public/wp-content/plugins/stupidpie-1.8/cache/sessions//EOIGTJONrENrM9DfPkqMdXtorFFoR3mp9A9TRNNf): failed to open stream Continue to video. Lo Stagista Inaspettato 2015 Mymovies It. Lo Stagista Inaspettato Film Completo Streaming Ita Youtube. Lo Stagista Inaspettato Dvd Amazon It Robert De Niro Anne. stagista inaspettato movie download movie trailerLo stagista inaspettato 2015 Lo stagista inaspettato 2015 full movie streaming watch Lo stagista You need to signup to Download. Please create a free account to access unlimited downloads streaming. Dont have an account? Lo stagista inaspettato /. Other Authors: Meyers, Nancy, Warner Bros. Lo Stagista Inaspettato - Lesperienza Non Invecchia Mai - Pod Dal Film.Lo Stagista Inaspettato - Nuovo Trailer Ufficiale | HD. Updated : 2015-09-11 20:07:24. Leave Your Comment. HD Streaming and Direct Download.Lo.Stagista.Inaspettato.2015.iTALiAN.BDRip.XviD-TRL[MT].avi. 1.67 GB. tracker. Description: Lo Hobbit - Un viaggio inaspettato, cos come i suoi seguiti, ebbe una gestazione travagliata, tanto che nel corso degli anni dovette superare molti ostacoli e cause 4. Text link: Lo stagista inaspettato streaming HD - altadefinizione.pink Translate this page. Cattivissimo Me 3 STREAMING ITA (film 2017) - Pinterest — Cattivissimo Me 3 STREAMING ITA (film 2017) > Film Cattivissimo Me 3 STREAMING ITA Completo Altadefinizione Vedere gratis Cattivissimo Me 3 megavideo VEDERE.Il risultato un film riuscito, inaspettato e divertente! Information about the torrent Lo Stagista Inaspettato 2015.avi. Seeders, leechers and torrent status is updated several times per day.Lo Stagista Inaspettato 2015.avi2.0 GB torrent search. Lo stagista Inaspettato - Trailer Ufficiale Italiano | HD.Nonostante le diffidenze iniziali, Ben dimostrer alla fondatrice della compagnia (Anne Hathaway) di essere una valida risorsa per lazienda e tra i due nascer un inaspettata sintonia. To download or stream you need BitLord. Visit them at BitLord.com.Dati Tecnici Generale Nome completo : Lo.Stagista.Inaspettato.2015.iTALiAN.MD.HDRip.XviD-LL1.avi Formato : AVI Formato/Informazioni : Audio Video Interleave Dimensione : 1,37 GiB Durata : 2o 1min Bitrate totale Watch lo stagista inaspettato streams online. Click for organised searchterms hoster selection.Lo stagista inaspettato [HD] (2015) - Film Streaming in HD. inaspettato in inglese. 2nd. lo stagista inaspettato streaming. 3rd.lo hobbit un viaggio inaspettato streaming. (alt.) Your search did not match any documents, or server error has occured. The Intern - Lo stagista inaspettato (2015).BRrip.XviD - ItalianUna societ di moda assume come stagista Ben Whittaker, un settantenneColor space : YUV Chroma subsampling : 4:2:0 Bit depth : 8 bits Scan type : Progressive Compression mode : Lossy Bits/(PixelFrame) : 0.205 Stream size : 1.21 Streaming Websites Video Streaming Websites.Moviewatcher For (searchTerms) there were found results for Movies and TV Series. Click on search result to view streaming links and watch for free. watch movies online stream full free movie. STREAMING DIRETTO. Audio 6 Video 7 AGGIORNAMENTO VERSIONE.seeders:20. leechers:2. Lo Stagista Inaspettato 2015 iTALiAN MD HDRip XviD LL1. html bbcode. Lo.Stagista.Inaspettato.2015.iTALiAN.BDRip.XviD-TRL.avi.mp4 704.3 MB Emoji [HD] (2017) MD ITA Bluray 1080p.mp4 859.8 MB Ghost in the Shellregarder Stagista Inaspettato ITA Bluray Openload, voir Stagista Inaspettato ITA Bluray Openload, streaming Stagista Inaspettato ITA Bluray Ita Streaming - Lo stagista inaspettato - CINEBLOG Nowvideo putlocker film senza limiti.La foresta dei sogni film streaming megavideo. Lo stagista inaspettato. The Intern, 2015. Genere.Nonostante le diffidenze iniziali, Ben dimostrer alla fondatrice della compagnia (Anne Hathaway) di essere una valida risorsa per lazienda e tra i due nascer un inaspettata sintonia. Lo stagista inaspettato. 29.95. Add to cart.Nonostante le diffidenze iniziali, Ben dimostrer alla fondatrice della compagnia (Anne Hathaway) di essere una valida risorsa per lazienda e tra i due nascer un inaspettata sintonia. Lo.Stagista.Inaspettato.BDRip-PARTE2.avi. File type: Video.size: 772 MB. date: 01-26-2016. Source title: Lo stagista inaspettato (2015) - FILM GRATIS IN STREAMING E. Color space : YUV Chroma subsampling : 4:2:0 Bit depth : 8 bits Scan type : Progressive Bits/(PixelFrame) : 0.210 Stream size : 3.85 GiB (94) Writing library : x264 core 146 r2538 121396c EncodingItalian Default : Yes Forced : No. screenshots BDRip: Lo Stagista Inaspettato (2015). Download News Song, Movie or Video Lo Stagista Inaspettato Trailer Ufficiale Italiano Hd in Mp4 Mp3 3gp Flac Webm format and 1080p 720p HD 4K 320Kbps video quality, s.

Lo stagista inaspettato Streaming HD ITA Film Completo. Lo stagista inaspettato - The Intern (2015). 1280x534, 0.72MB, viewed times HTML Code BB Code Direct Link. Fast download even when servers are busy. Una societ di moda assume uno stagista decisamente fuori dagli schemi: Ben Whittaker (Robert De Niro) un settantenneNonostante le diffidenze iniziali, Ben dimostrer alla fondatrice della compagnia (Anne Hathaway) di essere una valida risorsa per lazienda e tra i due nascer un inaspettata sintonia. Stream [email protected] Lo stagista inaspettato Film Italiano Online. This fundraiser closed about 2 years ago. Search Results For: Tag/streaming Ita Lo Stagista Inaspettato. Nothing Found. Search Results For: streaming ita lo stagista inaspettato.Guarda Malala Streaming ITA Cineblog, Malala Streaming ITA MegaVideo, Malala Streaming ITA 4Shared, Malala Streaming ITA HD , Malala Streaming ITA Cineblog01 2015 Megavideo HD. Streaming in alta definizione!Lo stagista inaspettato. Lo straniero della valle oscura - The Dark Valley. Lo stravagante mondo di Greenberg. Music Library. Streaming. Radio. Collection.for select it use VLC or dvd player home. not use wmp. Lo stagista inaspettato - The Intern (2015). YouTube Video: Category Lo chiamavano Jeeg Robot. Lo Hobbit La Battaglia Delle Cinque Armate. Lo Hobbit Un Viaggio Inaspettato.Lo Stagista Inaspettato. magnet:?xturn:btih:9ab82f0517 Name: Lo stagista inaspettato - 2015 ITA.avi. Size

recommended: